请选择 进入手机版 | 继续访问电脑版
本站原来Q群已取消,请原Q群会员和其他未入群会员加原盘天堂新官方QQ群713428235【盘盘多】,验证信息填写您在论坛的会员名,不填会员名的无法入群哈,进群后修改您的群名片名字为您在论坛的会员名,请务必修改,否则群成员多了不知道您是哪个会员,无法为您发送高速链接!

原盘天堂

 找回密码
 立即注册
查看: 1364|回复: 27

2d蓝光原盘remux 寄生虫 韩语原版 parasite.2019.korean.1080p.bluray.remux.avc.dts-hd.ma.truehd.7.1.atmos[34.84 GB]

[复制链接]

5350

主题

5840

帖子

128万

积分

管理员

Rank: 18Rank: 18Rank: 18Rank: 18Rank: 18

积分
1285605
发表于 2020-2-10 21:04:36 | 显示全部楼层 |阅读模式






寄生虫 기생충 (2019)

导演: 奉俊昊
编剧: 奉俊昊 / 韩进元
主演: 宋康昊 / 李善均 / 赵汝贞 / 崔宇植 / 朴素丹 / 更多...
类型: 剧情 / 喜剧
制片国家/地区: 韩国
语言: 韩语 / 英语
上映日期: 2019-05-21(戛纳电影节) / 2019-05-30(韩国)
片长: 132分钟
又名: 寄生上流(台) / 上流寄生族(港) / 패러사이트 / Parasite / Gisaengchung

豆瓣评分
8.7
596769人评价
5星 46.5%
4星 43.3%
3星 9.3%
2星 0.7%
1星 0.3%
好于 97% 喜剧片
好于 94% 剧情片

剧情简介 · · · · · ·
  基宇(崔宇植 饰)出生在一个贫穷的家庭之中,和妹妹基婷(朴素丹 饰)以及父母在狭窄的地下室里过着相依为命的日子。一天,基宇的同学上门拜访,他告诉基宇,自己在一个有钱人家里给他们的女儿做家教,太太是一个头脑简单出手又阔绰的女人,因为自己要出国留学,所以将家教的职位暂时转交给基宇。
  就这样,基宇来到了朴社长(李善均 饰)家中,并且见到了他的太太(赵汝贞 饰),没过多久,基宇的妹妹和父母也如同寄生虫一般的进入了朴社长家里工作。然而,他们的野心并没有止步于此,基宇更是和大小姐坠入了爱河。随着时间的推移,朴社长家里隐藏的秘密渐渐浮出了水面。

寄生虫 기생충 获奖情况
第92届奥斯卡金像奖  (2020)
最佳影片 奉俊昊
最佳导演 奉俊昊
最佳原创剧本 韩进元 / 奉俊昊
最佳国际影片
最佳剪辑(提名) 杨劲莫
最佳艺术指导(提名)
第72届戛纳电影节  (2019)
主竞赛单元 金棕榈奖 奉俊昊
第77届金球奖  (2020)
电影类 最佳导演(提名) 奉俊昊
电影类 最佳编剧(提名) 韩进元 / 奉俊昊
电影类 最佳外语片
第73届英国电影学院奖  (2020)
电影奖 最佳影片(提名)
电影奖 最佳导演(提名) 奉俊昊
电影奖 最佳原创剧本 韩进元 / 奉俊昊
电影奖 最佳非英语片
第40届韩国电影青龙奖  (2019)
最佳影片 奉俊昊
最佳导演 奉俊昊
最佳男主角(提名) 宋康昊
最佳女主角 赵汝贞
最佳男配角(提名) 朴明勋
最佳女配角 李静恩
最佳女配角(提名) 朴素丹
最佳剧本(提名)
最佳摄影(提名)
最佳剪辑(提名)
最佳美术
最佳配乐(提名)
第44届多伦多国际电影节  (2019)
观众选择奖(提名) 奉俊昊
第49届鹿特丹国际电影节  (2020)
观众奖 奉俊昊
第72届美国导演工会奖  (2020)
最佳电影导演(提名) 奉俊昊
第26届美国演员工会奖  (2020)
电影奖 最佳群戏
第72届美国编剧工会奖  (2020)
电影奖 最佳原创剧本 韩进元 / 奉俊昊
第31届美国制片人工会奖  (2020)
最佳电影制片人奖(提名)
第70届美国剪辑工会奖  (2020)
剧情片最佳剪辑 杨劲莫
第24届美国艺术指导工会奖  (2020)
电影奖 最佳当代电影艺术指导(提名) 李河俊
第67届美国音效剪辑协会奖  (2020)
金卷轴奖 最佳外语片音效剪辑
第85届纽约影评人协会奖  (2019)
最佳外语片
第91届美国国家评论协会奖  (2019)
最佳外语片
第25届美国评论家选择电影奖  (2020)
最佳影片(提名)
最佳导演 奉俊昊
最佳群戏(提名)
最佳外语片
最佳原创剧本(提名) 韩进元 / 奉俊昊
最佳剪辑(提名)
最佳美术指导(提名)
第35届美国独立精神奖  (2020)
最佳国际电影
第22届英国独立电影奖  (2019)
最佳外国独立电影
第20届美国电影学会奖  (2019)
特别表彰
第24届金卫星奖  (2020)
电影部门 最佳导演(提名) 奉俊昊
电影部门 最佳外语片(提名)
电影部门 最佳原创剧本(提名) 奉俊昊
第23届好莱坞电影奖  (2019)
年度制片 奉俊昊
第54届美国国家影评人协会奖  (2020)
最佳影片
最佳导演(提名) 奉俊昊
最佳男配角(提名) 宋康昊
最佳剧本 韩进元 / 奉俊昊
第18届华盛顿影评人协会奖  (2019)
最佳影片
最佳导演 奉俊昊
最佳外语片
第40届伦敦影评人协会奖  (2020)
年度电影(提名)
年度外语片(提名)
年度导演(提名) 奉俊昊
年度编剧(提名) 韩进元 / 奉俊昊
技术成就奖(提名) 李河俊
第40届波士顿影评人协会奖  (2019)
最佳导演 奉俊昊
最佳外语片
最佳群像表演(提名)
第45届洛杉矶影评人协会奖  (2019)
最佳影片
最佳导演 奉俊昊
最佳男配角 宋康昊
最佳剧本(提名) 韩进元 / 奉俊昊
最佳艺术指导(提名)
第32届芝加哥影评人协会奖  (2019)
最佳影片(提名)
最佳导演(提名) 奉俊昊
最佳女配角(提名) 赵汝贞
最佳原创剧本(提名) 韩进元 / 奉俊昊
最佳外语片(提名)
最佳摄影(提名) 洪坰杓
最佳艺术指导(提名)
第13届底特律影评人协会奖  (2019)
最佳影片
第4届亚特兰大影评人协会奖  (2019)
十佳影片
最佳导演 奉俊昊
最佳编剧 韩进元 / 奉俊昊
最佳外语片
第23届美国在线影评人协会奖  (2020)
最佳影片
最佳导演 奉俊昊
最佳男配角(提名) 宋康昊
最佳原创剧本 韩进元 / 奉俊昊
最佳剪辑 杨劲莫
最佳非英语片
第6届豆瓣电影年度榜单  (2019)
评分最高的外语电影(提名)
最受关注的非院线电影
评分最高的韩国电影
评分最高的喜剧片(提名)

Video
ID : 1
Format : AVC
Format/Info : Advanced Video Codec
Format profile : [email protected]
Format settings : CABAC / 3 Ref Frames
Format settings, CABAC : Yes
Format settings, Reference frames : 3 frames
Codec ID : V_MPEG4/ISO/AVC
Duration : 2 h 12 min
Bit rate mode : Variable
Bit rate : 29.0 Mb/s
Maximum bit rate : 31.0 Mb/s
Width : 1 920 pixels
Height : 1 080 pixels
Display aspect ratio : 16:9
Frame rate mode : Constant
Frame rate : 23.976 (24000/1001) FPS
Color space : YUV
Chroma subsampling : 4:2:0
Bit depth : 8 bits
Scan type : Progressive
Bits/(Pixel*Frame) : 0.583
Stream size : 26.6 GiB (76%)
Title : Parasite.2019.KORAEN.1080p.BluRay.REMUX.AVC.DTS-HD.MA.TrueHD.7.1.Atmos-FGT
Writing library : x264 core 146 r2538 121396c
Encoding settings : cabac=1 / ref=4 / deblock=1:-1:-1 / analyse=0x3:0x133 / me=umh / subme=10 / psy=1 / psy_rd=1.00:0.15 / mixed_ref=1 / me_range=24 / chroma_me=1 / trellis=2 / 8x8dct=1 / cqm=0 / deadzone=21,11 / fast_pskip=1 / chroma_qp_offset=-3 / threads=48 / lookahead_threads=4 / sliced_threads=0 / slices=4 / nr=0 / decimate=1 / interlaced=0 / bluray_compat=1 / constrained_intra=0 / bframes=3 / b_pyramid=1 / b_adapt=2 / b_bias=0 / direct=3 / weightb=1 / open_gop=1 / weightp=1 / keyint=24 / keyint_min=1 / scenecut=40 / intra_refresh=0 / rc_lookahead=24 / rc=2pass / mbtree=1 / bitrate=29000 / ratetol=1.0 / qcomp=0.60 / qpmin=0 / qpmax=69 / qpstep=4 / cplxblur=20.0 / qblur=0.5 / vbv_maxrate=31000 / vbv_bufsize=30000 / nal_hrd=vbr / filler=0 / ip_ratio=1.40 / aq=1:1.00
Language : Korean
Default : Yes
Forced : No
Color range : Limited
Color primaries : BT.709
Transfer characteristics : BT.709
Matrix coefficients : BT.709

Audio #1
ID : 2
Format : MLP FBA 16-ch
Format/Info : Meridian Lossless Packing FBA with 16-channel presentation
Commercial name : Dolby TrueHD with Dolby Atmos
Codec ID : A_TRUEHD
Duration : 2 h 12 min
Bit rate mode : Variable
Bit rate : 4 042 kb/s
Maximum bit rate : 6 816 kb/s
Channel(s) : 8 channels
Channel layout : L R C LFE Ls Rs Lb Rb
Sampling rate : 48.0 kHz
Frame rate : 1 200.000 FPS (40 SPF)
Compression mode : Lossless
Stream size : 3.73 GiB (11%)
Title : Parasite.2019.KORAEN.1080p.BluRay.REMUX.AVC.DTS-HD.MA.TrueHD.7.1.Atmos-FGT
Language : Korean
Default : Yes
Forced : No
Number of dynamic objects : 11
Bed channel count : 1 channel
Bed channel configuration : LFE

Audio #2
ID : 3
Format : DTS XLL
Format/Info : Digital Theater Systems
Commercial name : DTS-HD Master Audio
Codec ID : A_DTS
Duration : 2 h 12 min
Bit rate mode : Variable
Bit rate : 4 107 kb/s
Channel(s) : 8 channels
Channel layout : C L R LFE Lb Rb Lss Rss
Sampling rate : 48.0 kHz
Frame rate : 93.750 FPS (512 SPF)
Bit depth : 24 bits
Compression mode : Lossless
Stream size : 3.79 GiB (11%)
Title : Parasite.2019.KORAEN.1080p.BluRay.REMUX.AVC.DTS-HD.MA.TrueHD.7.1.Atmos-FGT
Language : Korean
Default : No
Forced : No

Audio #3
ID : 4
Format : AC-3
Format/Info : Audio Coding 3
Commercial name : Dolby Digital
Codec ID : A_AC3
Duration : 2 h 12 min
Bit rate mode : Constant
Bit rate : 640 kb/s
Channel(s) : 6 channels
Channel layout : L R C LFE Ls Rs
Sampling rate : 48.0 kHz
Frame rate : 31.250 FPS (1536 SPF)
Bit depth : 16 bits
Compression mode : Lossy
Stream size : 604 MiB (2%)
Title : Parasite.2019.KORAEN.1080p.BluRay.REMUX.AVC.DTS-HD.MA.TrueHD.7.1.Atmos-FGT
Language : Korean
Service kind : Complete Main
Default : No
Forced : No

Text #1
ID : 5
Format : UTF-8
Codec ID : S_TEXT/UTF8
Codec ID/Info : UTF-8 Plain Text
Duration : 2 h 5 min
Bit rate : 53 b/s
Count of elements : 1647
Stream size : 49.3 KiB (0%)
Title : English-SRT
Language : English
Default : Yes
Forced : No

Text #2
ID : 6
Format : PGS
Muxing mode : zlib
Codec ID : S_HDMV/PGS
Codec ID/Info : Picture based subtitle format used on BDs/HD-DVDs
Duration : 2 h 10 min
Bit rate : 26.8 kb/s
Count of elements : 3548
Stream size : 25.0 MiB (0%)
Title : French-PGS
Language : French
Default : No
Forced : No

Text #3
ID : 7
Format : PGS
Muxing mode : zlib
Codec ID : S_HDMV/PGS
Codec ID/Info : Picture based subtitle format used on BDs/HD-DVDs
Duration : 2 h 11 min
Bit rate : 37.1 kb/s
Count of elements : 5100
Stream size : 34.9 MiB (0%)
Title : French-SDH-PGS
Language : French
Default : No
Forced : No

Menu
00:00:00.000 : en:Chapter 1
00:05:44.802 : en:Chapter 2
00:12:16.610 : en:Chapter 3
00:20:35.484 : en:Chapter 4
00:29:21.926 : en:Chapter 5
00:37:05.348 : en:Chapter 6
00:46:19.943 : en:Chapter 7
00:53:52.979 : en:Chapter 8
01:02:55.646 : en:Chapter 9
01:12:10.242 : en:Chapter 10
01:23:25.834 : en:Chapter 11
01:32:19.659 : en:Chapter 12
01:41:22.284 : en:Chapter 13
01:48:21.912 : en:Chapter 14
01:56:07.502 : en:Chapter 15
02:07:06.744 : en:Chapter 16

本帖子中包含更多资源

您需要 登录 才可以下载或查看,没有帐号?立即注册

x
回复

使用道具 举报

0

主题

20

帖子

196

积分

注册会员

Rank: 2

积分
196
发表于 2020-2-11 09:47:57 | 显示全部楼层
还不错很好看
回复

使用道具 举报

0

主题

230

帖子

2725

积分

金牌会员

Rank: 6Rank: 6

积分
2725
发表于 2020-2-11 10:07:34 | 显示全部楼层
GOOD JOB
THANKS FOR SHARING
回复

使用道具 举报

0

主题

47

帖子

279

积分

中级会员

Rank: 3Rank: 3

积分
279
发表于 2020-2-11 20:13:36 | 显示全部楼层
感谢分享!!
回复

使用道具 举报

0

主题

25

帖子

113

积分

注册会员

Rank: 2

积分
113
发表于 2020-2-11 20:19:25 | 显示全部楼层
非常经典的片子 信息
回复

使用道具 举报

0

主题

512

帖子

4271

积分

论坛元老

Rank: 8Rank: 8

积分
4271
发表于 2020-2-11 22:13:43 | 显示全部楼层
等4K 原盘有吗?
回复

使用道具 举报

0

主题

226

帖子

1657

积分

金牌会员

Rank: 6Rank: 6

积分
1657
发表于 2020-2-11 23:01:20 | 显示全部楼层
leish 发表于 2020-2-11 22:13
等4K 原盘有吗?

韩国片4K的不多
回复

使用道具 举报

0

主题

574

帖子

4287

积分

论坛元老

Rank: 8Rank: 8

积分
4287
发表于 2020-2-12 06:37:11 | 显示全部楼层
感谢分享!!
回复

使用道具 举报

0

主题

164

帖子

1090

积分

金牌会员

Rank: 6Rank: 6

积分
1090
发表于 2020-2-12 12:56:41 | 显示全部楼层
  感谢楼主分享!!
回复

使用道具 举报

0

主题

20

帖子

123

积分

注册会员

Rank: 2

积分
123
发表于 2020-2-12 13:50:21 | 显示全部楼层
谢谢分享
回复

使用道具 举报

您需要登录后才可以回帖 登录 | 立即注册

本版积分规则

QQ|Archiver|手机版|小黑屋|原盘天堂 盘盘多 点击这里给我发消息

GMT+8, 2020-8-15 12:10 , Processed in 0.067703 second(s), 25 queries .

Powered by Discuz! X3.4

Copyright © 2001-2020, Tencent Cloud.

快速回复 返回顶部 返回列表