请选择 进入手机版 | 继续访问电脑版
本站已恢复正常,请所有会员加原盘天堂官方QQ群623265268【影视原盘】,验证信息填写您在论坛的会员名,不填会员名的无法入群哈,进群后修改您的群名片名字为您在论坛的会员名,请务必修改,否则群成员多了不知道您是哪个会员,无法为您发送高速链接!

原盘天堂

 找回密码
 立即注册
查看: 652|回复: 37

4k蓝光原盘BDMV 决战中途岛 英语原版 Midway.2019.2160p.BluRay.HEVC.TrueHD.7.1.Atmos[86.10 GB]

[复制链接]

5270

主题

5656

帖子

126万

积分

管理员

Rank: 18Rank: 18Rank: 18Rank: 18Rank: 18

积分
1264320
发表于 2020-2-14 13:47:15 | 显示全部楼层 |阅读模式










决战中途岛 Midway (2019)

导演: 罗兰·艾默里奇
编剧: 韦斯·图克
主演: 艾德·斯克林 / 帕特里克·威尔森 / 伍迪·哈里森 / 卢克·伊万斯 / 丹尼斯·奎德 / 更多...
类型: 剧情 / 历史 / 战争
官方网站: midway.movie/
制片国家/地区: 中国大陆 / 美国
语言: 英语
上映日期: 2019-11-08(美国/中国大陆)
片长: 138分钟 / 136分钟(中国大陆)
又名: 中途岛 / 中途岛海战 / 中途岛战役 / Battle of the Midway

豆瓣评分 引用
7.7
105388人评价
5星 19.4%
4星 50.9%
3星 26.7%
2星 2.7%
1星 0.4%
好于 60% 战争片
好于 66% 历史片

剧情简介 · · · · · ·
  电影讲述的是第二次世界大战太平洋战争重要转折点——中途岛海战:经此一役,日本海军受到“降维打击”,美日海上实力反转,从而扭转了整个太平洋战场的局势。影片通过参战士兵和飞行员一个个鲜活的故事,带领观众逐步进入1942年6月初发生在太平洋中途岛附近那场令人难以置信的战争……

DISC INFO:

Disc Title:     Midway.2019.COMPLETE.UHD.BLURAY-AAAUHD
Disc Size:      92,432,673,526 bytes
Protection:     AACS2
Extras:         Ultra HD, BD-Java
BDInfo:         0.7.5.7 (compatible layout created by DVDFab 11.0.7.2)

PLAYLIST REPORT:

Name:                   00504.MPLS  
Length:                 2:18:25.255 (h:m:s.ms)
Size:                   80,083,243,008 bytes
Total Bitrate:          77.14 Mbps

(*) Indicates included stream hidden by this playlist.

VIDEO:

Codec                   Bitrate             Description     
-----                   -------             -----------     
MPEG-H HEVC Video       60534 kbps          2160p / 23.976 fps / 16:9 / Main 10 @ Level 5.1 @ High / 4:2:0 / 10 bits / 1000nits / HDR10 / BT.2020
* MPEG-H HEVC Video     7512 kbps (11.04%)  1080p / 23.976 fps / 16:9 / Main 10 @ Level 5.1 @ High / 4:2:0 / 10 bits / 1000nits / Dolby Vision FEL / BT.2020

AUDIO:

Codec                           Language        Bitrate         Description     
-----                           --------        -------         -----------     
Dolby TrueHD/Atmos Audio        English         3638 kbps       7.1-Atmos / 48 kHz / 3638 kbps / 24-bit (AC3 Core: 5.1-EX / 48 kHz / 448 kbps)
Dolby Digital Audio             English         192 kbps        2.0 / 48 kHz / 192 kbps
Dolby Digital Audio             Spanish         640 kbps        5.1 / 48 kHz / 640 kbps
Dolby Digital Audio             English         192 kbps        2.0 / 48 kHz / 192 kbps

SUBTITLES:

Codec                           Language        Bitrate         Description     
-----                           --------        -------         -----------     
Presentation Graphics           English         27.867 kbps                     
Presentation Graphics           English         31.926 kbps                     
Presentation Graphics           Spanish         33.908 kbps   



General
Unique ID                      : 166862900165499745272536832790265018234 (0x7D88A0278EC8C84394CA40522C67377A)
Complete name              : Midway.2019.UHD.BluRay.2160p.TrueHD.Atmos.7.1.HEVC.REMUX-FraMeSToR.mkv
Format                         : Matroska
Format version                 : Version 4
File size                      : 62.4 GiB
Duration                       : 2 h 18 min
Overall bit rate mode          : Variable
Overall bit rate               : 64.5 Mb/s
Movie name                     : Midway 4K
Encoded date                   : UTC 2020-02-07 09:30:58
Writing application            : mkvmerge v43.0.0 ('The Quartermaster') 64-bit
Writing library                : libebml v1.3.10 + libmatroska v1.5.2
Video
ID                             : 1
Format                         : HEVC
Format/Info                    : High Efficiency Video Coding
Format profile                 : Main [email protected]@High
HDR format                     : SMPTE ST 2086, HDR10 compatible
Codec ID                       : V_MPEGH/ISO/HEVC
Duration                       : 2 h 18 min
Bit rate                       : 60.5 Mb/s
Width                          : 3 840 pixels
Height                         : 2 160 pixels
Display aspect ratio           : 16:9
Frame rate mode                : Constant
Frame rate                     : 23.976 (24000/1001) FPS
Color space                    : YUV
Chroma subsampling             : 4:2:0 (Type 2)
Bit depth                      : 10 bits
Bits/(Pixel*Frame)             : 0.304
Stream size                    : 58.5 GiB (94%)
Default                        : Yes
Forced                         : No
Color range                    : Limited
Color primaries                : BT.2020
Transfer characteristics       : PQ
Matrix coefficients            : BT.2020 non-constant
Mastering display color primar : Display P3
Mastering display luminance    : min: 0.0001 cd/m2, max: 1000 cd/m2
Maximum Content Light Level    : 1000 cd/m2
Maximum Frame-Average Light Le : 476 cd/m2
Audio #1
ID                             : 2
Format                         : MLP FBA 16-ch
Format/Info                    : Meridian Lossless Packing FBA with 16-channel presentation
Commercial name                : Dolby TrueHD with Dolby Atmos
Codec ID                       : A_TRUEHD
Duration                       : 2 h 18 min
Bit rate mode                  : Variable
Bit rate                       : 3 190 kb/s
Maximum bit rate               : 5 460 kb/s
Channel(s)                     : 8 channels
Channel layout                 : L R C LFE Ls Rs Lb Rb
Sampling rate                  : 48.0 kHz
Frame rate                     : 1 200.000 FPS (40 SPF)
Compression mode               : Lossless
Stream size                    : 3.08 GiB (5%)
Title                          : TrueHD Atmos 7.1
Language                       : English
Default                        : Yes
Forced                         : No
Number of dynamic objects      : 11
Bed channel count              : 1 channel
Bed channel configuration      : LFE
Audio #2
ID                             : 3
Format                         : AC-3
Format/Info                    : Audio Coding 3
Commercial name                : Dolby Digital
Codec ID                       : A_AC3
Duration                       : 2 h 18 min
Bit rate mode                  : Constant
Bit rate                       : 448 kb/s
Channel(s)                     : 6 channels
Channel layout                 : L R C LFE Ls Rs
Sampling rate                  : 48.0 kHz
Frame rate                     : 31.250 FPS (1536 SPF)
Bit depth                      : 16 bits
Compression mode               : Lossy
Stream size                    : 444 MiB (1%)
Title                          : AC3 5.1-EX
Language                       : English
Service kind                   : Complete Main
Default                        : No
Forced                         : No
Audio #3
ID                             : 4
Format                         : AC-3
Format/Info                    : Audio Coding 3
Commercial name                : Dolby Digital
Codec ID                       : A_AC3
Duration                       : 2 h 18 min
Bit rate mode                  : Constant
Bit rate                       : 192 kb/s
Channel(s)                     : 2 channels
Channel layout                 : L R
Sampling rate                  : 48.0 kHz
Frame rate                     : 31.250 FPS (1536 SPF)
Bit depth                      : 16 bits
Compression mode               : Lossy
Stream size                    : 190 MiB (0%)
Title                          : Commentary by Director Roland Emmerich
Language                       : English
Service kind                   : Complete Main
Default                        : No
Forced                         : No
Text #1
ID                             : 5
Format                         : PGS
Codec ID                       : S_HDMV/PGS
Codec ID/Info                  : Picture based subtitle format used on BDs/HD-DVDs
Duration                       : 2 h 8 min
Bit rate                       : 30.1 kb/s
Count of elements              : 2462
Stream size                    : 27.6 MiB (0%)
Title                          : English
Language                       : English
Default                        : No
Forced                         : No
Text #2
ID                             : 6
Format                         : PGS
Codec ID                       : S_HDMV/PGS
Codec ID/Info                  : Picture based subtitle format used on BDs/HD-DVDs
Duration                       : 2 h 8 min
Bit rate                       : 34.5 kb/s
Count of elements              : 2902
Stream size                    : 31.6 MiB (0%)
Title                          : English (SDH)
Language                       : English
Default                        : No
Forced                         : No
Text #3
ID                             : 7
Format                         : PGS
Codec ID                       : S_HDMV/PGS
Codec ID/Info                  : Picture based subtitle format used on BDs/HD-DVDs
Duration                       : 2 h 8 min
Bit rate                       : 36.4 kb/s
Count of elements              : 2934
Stream size                    : 33.6 MiB (0%)
Title                          : Spanish (Latin American)
Language                       : Spanish
Default                        : No
Forced                         : No
Menu
00:00:00.000                   : en:Chapter 01
00:09:36.659                   : en:Chapter 02
00:17:37.682                   : en:Chapter 03
00:25:13.512                   : en:Chapter 04
00:30:33.623                   : en:Chapter 05
00:39:34.289                   : en:Chapter 06
00:46:13.020                   : en:Chapter 07
00:53:48.851                   : en:Chapter 08
01:00:32.963                   : en:Chapter 09
01:09:01.971                   : en:Chapter 10
01:16:11.025                   : en:Chapter 11
01:24:48.041                   : en:Chapter 12
01:31:49.546                   : en:Chapter 13
01:42:08.873                   : en:Chapter 14
01:51:17.880                   : en:Chapter 15
02:02:21.084                   : en:Chapter 16

本帖子中包含更多资源

您需要 登录 才可以下载或查看,没有帐号?立即注册

x
回复

使用道具 举报

0

主题

209

帖子

2308

积分

金牌会员

Rank: 6Rank: 6

积分
2308
发表于 2020-2-14 15:35:53 | 显示全部楼层
thanks a lot
回复

使用道具 举报

0

主题

158

帖子

1049

积分

金牌会员

Rank: 6Rank: 6

积分
1049
发表于 2020-2-14 19:23:00 | 显示全部楼层
为什么好电影这么难找呢?谢谢。
回复

使用道具 举报

0

主题

4

帖子

29

积分

新手上路

Rank: 1

积分
29
发表于 2020-2-15 00:09:19 | 显示全部楼层
好电影!感谢分享
回复

使用道具 举报

0

主题

8

帖子

41

积分

新手上路

Rank: 1

积分
41
发表于 2020-2-15 01:51:03 | 显示全部楼层
谢谢分想电影
回复

使用道具 举报

0

主题

121

帖子

905

积分

高级会员

Rank: 4

积分
905
发表于 2020-2-15 02:20:18 | 显示全部楼层
好电影!感谢分享
回复

使用道具 举报

0

主题

124

帖子

793

积分

高级会员

Rank: 4

积分
793
发表于 2020-2-15 12:08:29 | 显示全部楼层
决战中途岛,4K要的!
回复

使用道具 举报

0

主题

12

帖子

50

积分

注册会员

Rank: 2

积分
50
发表于 2020-2-15 13:24:32 来自手机 | 显示全部楼层
下载完之后电影存在哪啊?
回复

使用道具 举报

0

主题

109

帖子

894

积分

高级会员

Rank: 4

积分
894
发表于 2020-2-15 14:52:55 | 显示全部楼层
4K REMUX出来了,感谢大大分享!
回复

使用道具 举报

0

主题

361

帖子

1548

积分

金牌会员

Rank: 6Rank: 6

积分
1548
发表于 2020-2-15 18:52:21 | 显示全部楼层
感谢分享
回复

使用道具 举报

您需要登录后才可以回帖 登录 | 立即注册

本版积分规则

QQ|Archiver|手机版|小黑屋|原盘天堂

GMT+8, 2020-4-2 23:39 , Processed in 0.073230 second(s), 25 queries .

Powered by Discuz! X3.4

© 2001-2017 Comsenz Inc.

快速回复 返回顶部 返回列表