请选择 进入手机版 | 继续访问电脑版
本站已恢复正常,请所有会员加原盘天堂官方QQ群623265268【影视原盘】,验证信息填写您在论坛的会员名,不填会员名的无法入群哈,进群后修改您的群名片名字为您在论坛的会员名,请务必修改,否则群成员多了不知道您是哪个会员,无法为您发送高速链接!

原盘天堂

 找回密码
 立即注册
查看: 208|回复: 3

2d蓝光原盘bdmv 流浪地球 国语中字 the.wandering.earth.2019.chinese.1080p.bluray.avc.truehd.7.1.atmos[37.71 GB]

[复制链接]

5124

主题

5378

帖子

124万

积分

管理员

Rank: 18Rank: 18Rank: 18Rank: 18Rank: 18

积分
1241629
发表于 2019-11-4 21:02:16 | 显示全部楼层 |阅读模式






流浪地球 2019

◎译  名 The Wandering Earth
◎片  名 流浪地球
◎年  代 2019
◎产  地 中国大陆
◎类  别 科幻 / 灾难
◎语  言 汉语普通话 / 英语 / 俄语 / 法语 / 日语 / 韩语 / 印尼语
◎上映日期 2019-02-05(中国大陆)
◎IMDb评分 6.1/10 from 20419 users
◎蓝光高清   http://www.4ktt.com
◎豆瓣评分 7.9/10 from 1308404 users
◎豆瓣链接 https://movie.douban.com/subject/26266893/
◎片  长 125分钟
◎导  演 郭帆 Frant Gwo
◎编  剧 龚格尔 Geer Gong / 严东旭 Dongxu Yan / 郭帆 Frant Gwo / 叶俊策 Junce Ye / 杨治学 Zhixue Yang / 吴荑 Ti Wu / 叶濡畅 Ruchang Ye / 沈晶晶 Jingjing Shen / 刘慈欣 Cixin Liu
◎主  演 屈楚萧 Shaw
      吴京 Jing Wu
      李光洁 Guangjie Li
      吴孟达 Man Tat Ng
      赵今麦 Jinmai Zhao
      隋凯 Michael Stephen Kai Sui
      屈菁菁 Jingjing Qu
      张亦驰 Yichi Zhang
      杨皓宇 Haoyu Yang
      阿尔卡基·沙罗格拉茨基
      李虹辰 Hongchen Li
      杨轶 Yi Yang
      姜志刚 Zhignag jiang
      张欢 Huan Zhang
      雷佳音 Jiayin Lei
      宁浩 Hao Ning
      刘慈欣 Cixin Liu
      郭京飞 Jingfei Guo
      王智 Zhi Wang
      张子贤 Zixian Zhang
      路阳 Yang Lu
      张宁 Ning Zhang
      张小北 Xiaobei Zhang
      饶晓志 Xiaozhi Rao
      陶珞依 Luoyi Tao
      吴晓亮 Xiaoliang Wu
      龚格尔 Geer Gong
      郭帆 Frant Gwo

◎简  介
  近未来,科学家们发现太阳急速衰老膨胀,短时间内包括地球在内的整个太阳系都将被太阳所吞没。为了自救,人类提出一个名为“流浪地球”的大胆计划,即倾全球之力在地球表面建造上万座发动机和转向发动机,推动地球离开太阳系,用2500年的时间奔往另外一个栖息之地。中国航天员刘培强(吴京 饰)在儿子刘启四岁那年前往国际空间站,和国际同侪肩负起领航者的重任。转眼刘启(屈楚萧 饰)长大,他带着妹妹朵朵(赵今麦 饰)偷偷跑到地表,偷开外公韩子昂(吴孟达 饰)的运输车,结果不仅遭到逮捕,还遭遇了全球发动机停摆的事件。为了修好发动机,阻止地球坠入木星,全球开始展开饱和式营救,连刘启他们的车也被强征加入。在与时间赛跑的过程中,无数的人前仆后继,奋不顾身,只为延续百代子孙生存的希望……

  本片根据刘慈欣的同名小说改编。


◎获奖情况
  第9届北京国际电影节(2019)
  天坛奖 最佳视觉效果奖
  天坛奖(提名) 郭帆

  第26届北京大学生电影节(2019)
  最佳影片奖

  第5届豆瓣电影年度榜单(2018)
  最值得期待的华语电影(提名)

Video
ID : 1
Format : AVC
Format/Info : Advanced Video Codec
Format profile : [email protected]
Format settings : CABAC / 4 Ref Frames
Format settings, CABAC : Yes
Format settings, Reference frames : 4 frames
Codec ID : V_MPEG4/ISO/AVC
Duration : 2 h 5 min
Bit rate mode : Variable
Bit rate : 32.5 Mb/s
Maximum bit rate : 35.0 Mb/s
Width : 1 920 pixels
Height : 1 080 pixels
Display aspect ratio : 16:9
Frame rate mode : Constant
Frame rate : 24.000 FPS
Color space : YUV
Chroma subsampling : 4:2:0
Bit depth : 8 bits
Scan type : Progressive
Bits/(Pixel*Frame) : 0.654
Stream size : 28.4 GiB (76%)
Title : The.Wandering.Earth.2019.CHINESE.1080p.BluRay.REMUX.AVC.DTS-HD.MA.TrueHD.7.1.Atmos-FGT
Language : English
Default : No
Forced : No

Audio #1
ID : 2
Format : MLP FBA 16-ch
Format/Info : Meridian Lossless Packing FBA with 16-channel presentation
Commercial name : Dolby TrueHD with Dolby Atmos
Codec ID : A_TRUEHD
Duration : 2 h 5 min
Bit rate mode : Variable
Bit rate : 4 770 kb/s
Maximum bit rate : 8 064 kb/s
Channel(s) : 8 channels
Channel layout : L R C LFE Ls Rs Lb Rb
Sampling rate : 48.0 kHz
Frame rate : 1 200.000 FPS (40 SPF)
Compression mode : Lossless
Stream size : 4.17 GiB (11%)
Title : The.Wandering.Earth.2019.CHINESE.1080p.BluRay.REMUX.AVC.DTS-HD.MA.TrueHD.7.1.Atmos-FGT
Language : Chinese
Default : Yes
Forced : No
Number of dynamic objects : 11
Bed channel count : 1 channel
Bed channel configuration : LFE

Audio #2
ID : 3
Format : DTS XLL
Format/Info : Digital Theater Systems
Commercial name : DTS-HD Master Audio
Codec ID : A_DTS
Duration : 2 h 5 min
Bit rate mode : Variable
Bit rate : 4 414 kb/s
Channel(s) : 8 channels
Channel layout : C L R LFE Lb Rb Lss Rss
Sampling rate : 48.0 kHz
Frame rate : 93.750 FPS (512 SPF)
Bit depth : 24 bits
Compression mode : Lossless
Stream size : 3.86 GiB (10%)
Title : The.Wandering.Earth.2019.CHINESE.1080p.BluRay.REMUX.AVC.DTS-HD.MA.TrueHD.7.1.Atmos-FGT
Language : Chinese
Default : No
Forced : No

Audio #3
ID : 4
Format : AC-3
Format/Info : Audio Coding 3
Commercial name : Dolby Digital
Codec ID : A_AC3
Duration : 2 h 5 min
Bit rate mode : Constant
Bit rate : 640 kb/s
Channel(s) : 6 channels
Channel layout : L R C LFE Ls Rs
Sampling rate : 48.0 kHz
Frame rate : 31.250 FPS (1536 SPF)
Bit depth : 16 bits
Compression mode : Lossy
Stream size : 573 MiB (1%)
Title : The.Wandering.Earth.2019.CHINESE.1080p.BluRay.REMUX.AVC.DTS-HD.MA.TrueHD.7.1.Atmos-FGT
Language : Chinese
Service kind : Complete Main
Default : No
Forced : No

Audio #4
ID : 5
Format : AC-3
Format/Info : Audio Coding 3
Commercial name : Dolby Digital
Codec ID : A_AC3
Duration : 2 h 5 min
Bit rate mode : Constant
Bit rate : 384 kb/s
Channel(s) : 2 channels
Channel layout : L R
Sampling rate : 48.0 kHz
Frame rate : 31.250 FPS (1536 SPF)
Bit depth : 16 bits
Compression mode : Lossy
Stream size : 344 MiB (1%)
Title : The.Wandering.Earth.2019.CHINESE.1080p.BluRay.REMUX.AVC.DTS-HD.MA.TrueHD.7.1.Atmos-FGT
Language : Chinese
Service kind : Complete Main
Default : No
Forced : No

Text #1
ID : 6
Format : UTF-8
Codec ID : S_TEXT/UTF8
Codec ID/Info : UTF-8 Plain Text
Duration : 1 h 57 min
Bit rate : 54 b/s
Count of elements : 1758
Stream size : 47.4 KiB (0%)
Title : English-SRT
Language : English
Default : Yes
Forced : No

Text #2
ID : 7
Format : PGS
Muxing mode : zlib
Codec ID : S_HDMV/PGS
Codec ID/Info : Picture based subtitle format used on BDs/HD-DVDs
Duration : 1 h 57 min
Bit rate : 35.0 kb/s
Count of elements : 2711
Stream size : 29.5 MiB (0%)
Title : English-PGS
Language : English
Default : No
Forced : No

Text #3
ID : 8
Format : PGS
Muxing mode : zlib
Codec ID : S_HDMV/PGS
Codec ID/Info : Picture based subtitle format used on BDs/HD-DVDs
Duration : 2 h 3 min
Bit rate : 14.7 kb/s
Count of elements : 2802
Stream size : 13.1 MiB (0%)
Title : Chinese-PGS
Language : Chinese
Default : No
Forced : No

Menu
00:00:00.000 : en:Chapter 01
00:09:02.708 : en:Chapter 02
00:22:19.250 : en:Chapter 03
00:32:36.416 : en:Chapter 04
00:41:24.666 : en:Chapter 05
00:50:44.166 : en:Chapter 06
00:58:43.333 : en:Chapter 07
01:09:27.625 : en:Chapter 08
01:20:09.625 : en:Chapter 09
01:34:25.291 : en:Chapter 10
01:45:38.583 : en:Chapter 11
01:55:38.250 : en:Chapter 12

提示:如迅雷下载提示"任务出错"、"因版权无法下载",请使用迅雷5、utorrent、比特精灵等软件下载

本帖子中包含更多资源

您需要 登录 才可以下载或查看,没有帐号?立即注册

x
回复

使用道具 举报

0

主题

137

帖子

809

积分

高级会员

Rank: 4

积分
809
发表于 2019-12-3 01:24:57 | 显示全部楼层
有4k版本吗
回复

使用道具 举报

0

主题

5

帖子

128

积分

注册会员

Rank: 2

积分
128
发表于 7 天前 | 显示全部楼层
回复

使用道具 举报

0

主题

5

帖子

128

积分

注册会员

Rank: 2

积分
128
发表于 7 天前 | 显示全部楼层
已支付一元
回复

使用道具 举报

您需要登录后才可以回帖 登录 | 立即注册

本版积分规则

QQ|Archiver|手机版|小黑屋|原盘天堂

GMT+8, 2019-12-14 15:56 , Processed in 0.062871 second(s), 25 queries .

Powered by Discuz! X3.4

© 2001-2017 Comsenz Inc.

快速回复 返回顶部 返回列表